网站导航|设为主页|加入收藏 首页|影视|动漫|音乐|软件|游戏|其他
首页>>>>奇异博士2:疯狂多元宇宙.IMAX版下载

【2022】【奇异博士2:疯狂多元宇宙.IMAX版】【WebDL-1080p.MKV】【中字】

中文名:【2022】【奇异博士2:疯狂多元宇宙.IMAX版】【WebDL-1080p.MKV】【中字】

发布时间:2022-06-23 21:12

分类:

简介:

海报





译  名 奇异博士2:疯狂多元宇宙/奇异博士2/奇异博士2:失控多重宇宙(台)/奇异博士2: 失控多元宇宙(港)
片  名 Doctor Strange in the Multiverse of Madness
年  代 2022
国  家 美国
类  别 动作/冒险/奇幻/恐怖
语  言 英语
字  幕 中简/中繁/英文
评  分 7.3/10 from 214,191 users
链  接 https://www.imdb.com/title/tt9419884
文件大小 7.30 GB
片  长 126 Min
导  演 山姆·雷米
主  演 本尼迪克特·康伯巴奇 Benedict Cumberbatch
     伊丽莎白·奥尔森 Elizabeth Olsen
     切瓦特·埃加福 Chiwetel Ejiofor
     本尼迪克特·王 Benedict Wong
     克索斯利尔·戈麦斯 Xochitl Gomez
     瑞秋·麦克亚当斯 Rachel McAdams
     迈克尔·斯图巴 Michael Stuhlbarg
     帕特里克·斯图尔特 Patrick Stewart
     海莉·阿特维尔 Hayley Atwell
     约翰·卡拉辛斯基 John Krasinski
     拉什纳·林奇 Lashana Lynch

简介

  故事承接《蜘蛛侠:英雄无归》,奇异博士无意中打开疯狂多元宇宙,事态失控,他去找红巫女旺达帮忙。切瓦特·埃加福特扮演的莫度告诉奇异博士,宇宙最大的威胁其实就是他自己:一个邪恶的奇异博士突然现身!

Video
Format                         : AVC
Format/Info                    : Advanced Video Codec
Format profile                 : High@L4
Format settings                : CABAC / 4 Ref Frames
Format settings, CABAC         : Yes
Format settings, Reference fra : 4 frames
Codec ID                       : V_MPEG4/ISO/AVC
Duration                       : 2 h 6 min
Bit rate mode                  : Variable
Bit rate                       : 7 488 kb/s
Maximum bit rate               : 12.7 Mb/s
Width                          : 1 920 pixels
Height                         : 1 080 pixels
Display aspect ratio           : 16:9
Frame rate mode                : Constant
Frame rate                     : 23.976 (24000/1001) FPS
Color space                    : YUV
Chroma subsampling             : 4:2:0
Bit depth                      : 8 bits
Scan type                      : Progressive
Bits/(Pixel*Frame)             : 0.151
Stream size                    : 6.62 GiB (91%)
Color range                    : Limited
Color primaries                : BT.709
Transfer characteristics       : BT.709
Matrix coefficients            : BT.709

Audio
Format                         : E-AC-3 JOC
Format/Info                    : Enhanced AC-3 with Joint Object Coding
Commercial name                : Dolby Digital Plus with Dolby Atmos
Codec ID                       : A_EAC3
Duration                       : 2 h 6 min
Bit rate mode                  : Constant
Bit rate                       : 768 kb/s
Channel(s)                     : 6 channels
Channel layout                 : L R C LFE Ls Rs
Sampling rate                  : 48.0 kHz
Frame rate                     : 31.250 FPS (1536 SPF)
Compression mode               : Lossy
Stream size                    : 695 MiB (9%)
Service kind                   : Complete Main
Complexity index               : 16
Number of dynamic objects      : 15
Bed channel count              : 1 channel
Bed channel configuration      : LFE
截图




【下载地址】

资源名称(您可以点击这些文件名进行下载)

全选

发 布 人:killman

网站名称:龙网

网  址:http://www.lwgod.com

Copyright@2008-2011 www.etdown.net. All Rights Reserved.   沪ICP备16043169号-1

光影资源联盟 疯狗下载 电影下载 最新电影下载

本站仅为网友提供交流的信息平台,所有资源的实际文件,都不在本站的服务器上,而是网友用自己的电脑自发共享的,更不保证文字描述和实际内容相符,发布的信息来自国内各资源站,本站只是由程序自动收集其发布的信息,如果您认为有关发布信息侵犯了您的版权,请及时举报,我们将尽快为您处理。追究版权及相关责任请直接与原发布网站的发布者联系,本站将近最大努力过滤政治和色情的内容,如发现一律封IP。取保问题请到举报贴。