网站导航|设为主页|加入收藏 首页|影视|动漫|音乐|软件|游戏|其他
首页>>>>狙击手.最冷的枪.张艺谋2022新片下载

【张艺谋2022高分必看战争好片】【狙击手】【WebDL-2160p.MKV】【国语】

中文名:【张艺谋2022高分必看战争好片】【狙击手】【WebDL-2160p.MKV】【国语】

发布时间:2022-06-23 21:10

分类:

简介:

海报





译  名 狙击手/最冷的枪
片  名 Snipers
年  代 2022
国  家 中国
类  别 剧情/历史/战争
语  言 汉语普通话/英语
字  幕 中英硬字幕
评  分 7.7/10 from 256,675 users
链  接 https://movie.douban.com/subject/35215390
文件大小 4.37 GB
片  长 96 Min
导  演 张艺谋 Yimou Zhang
     张末 Mo Zhang
主  演 陈永胜 Yongsheng Chen
     章宇 Yu Zhang
     张译 Yi Zhang
     刘奕铁 Yitie Liu
     黄炎 Yan Huang
     王梓屹 Ziyi Wang
     陈铭杨 Mingyang Chen
     王乃训 Naixun Wang
     程泓鑫 Hongxin Cheng
     赵琥成 Hucheng Zhao
     李汶聪 Wencong Li

简介

  影片根据抗美援朝战争“冷枪冷炮”运动中神枪手群体事迹改编。1952年冬至1953年初,中国人民志愿军与联合国军在朝鲜战场形成僵持,双方发起了低强度的密集狙击战,史称"冷枪冷炮运动"。在连长(张译 饰)带领下的狙击五班战士枪法过人,成为敌军的心头大患,班长刘文武(章宇 饰)更成为重点狙击对象。为重创狙击五班,敌方调配精英狙击小队,配以最先进的武器装备,更迫使狙击五班战士大永(陈永胜 饰)等人为救同伴进入其设好的险境之地。但正当敌军打响自己如意算盘之时,他们未料到,被他们当作诱饵的侦察兵亮亮(刘奕铁 饰)身上其实隐藏着更大的秘密……

Video
Format                         : HEVC
Format/Info                    : High Efficiency Video Coding
Format profile                 : Main 10 @ L5.1 @ Main
Codec ID                       : V_MPEGH/ISO/HEVC
Duration                       : 1 h 35 min
Bit rate                       : 6 264 kb/s
Width                          : 3 840 pixels
Height                         : 1 606 pixels
Display aspect ratio           : 2.40:1
Frame rate mode                : Constant
Frame rate                     : 60.000 FPS
Color space                    : YUV
Chroma subsampling             : 4:2:0
Bit depth                      : 10 bits
Bits/(Pixel*Frame)             : 0.017
Stream size                    : 4.20 GiB (96%)
Color range                    : Limited
Color primaries                : BT.709
Transfer characteristics       : BT.709
Matrix coefficients            : BT.709

Audio
Format                         : E-AC-3
Format/Info                    : Enhanced AC-3
Commercial name                : Dolby Digital Plus
Codec ID                       : A_EAC3
Duration                       : 1 h 35 min
Bit rate mode                  : Constant
Bit rate                       : 256 kb/s
Channel(s)                     : 6 channels
Channel layout                 : L R C LFE Ls Rs
Sampling rate                  : 48.0 kHz
Frame rate                     : 31.250 FPS (1536 SPF)
Compression mode               : Lossy
Stream size                    : 176 MiB (4%)
Service kind                   : Complete Main
截图




【下载地址】

资源名称(您可以点击这些文件名进行下载)

全选

发 布 人:killman

网站名称:龙网

网  址:http://www.lwgod.com

Copyright@2008-2011 www.etdown.net. All Rights Reserved.   沪ICP备16043169号-1

光影资源联盟 疯狗下载 电影下载 最新电影下载

本站仅为网友提供交流的信息平台,所有资源的实际文件,都不在本站的服务器上,而是网友用自己的电脑自发共享的,更不保证文字描述和实际内容相符,发布的信息来自国内各资源站,本站只是由程序自动收集其发布的信息,如果您认为有关发布信息侵犯了您的版权,请及时举报,我们将尽快为您处理。追究版权及相关责任请直接与原发布网站的发布者联系,本站将近最大努力过滤政治和色情的内容,如发现一律封IP。取保问题请到举报贴。