网站导航|设为主页|加入收藏 首页|影视|动漫|音乐|软件|游戏|其他
首页>>>>智齿.香港2021林家栋新片下载

【林家栋2021限制级高分悬疑犯罪】【智齿】【WebDL-1080p.MKV】【中字】

中文名:【林家栋2021限制级高分悬疑犯罪】【智齿】【WebDL-1080p.MKV】【中字】

发布时间:2022-06-15 23:13

分类:

简介:

海报





译  名 智齿
片  名 Limbo
年  代 2021
国  家 中国香港/中国
类  别 悬疑/犯罪
语  言 粤语
字  幕 中文简繁
评  分 7.2/10 from 32,459 users
链  接 https://movie.douban.com/subject/27124695
文件大小 5.96 GB
片  长 118 Min
导  演 郑保瑞 Pou-Soi Cheang
主  演 林家栋 Ka Tung Lam
     刘雅瑟 Yase Liu
     李淳 Mason Lee
     池内博之 Hiroyuki Ikeuchi
     廖子妤 Fish Liew
     吴岱融 Hugo Ng
     沈震轩 Sammy Sum
     陈汉娜 Hanna Chan
     苏宸褕 Kumer So
     林晓彤 Iris Lam

简介

  从学堂毕业的任凯,因一宗连环凶杀案,与刚复职的展哥开始搭档。案子破不了反倒引发连串事故。展哥重遇杀妻儿的街童王桃,被激发的恨意一发不可收拾;任凯大意失枪,误被凶手所获。凶手潜伏在城市之中,危机逐步逼近……

  两位女性和一位身份不明的街头女孩相继被杀,在公众压力下,警署重启老侦探展哥(林家栋 饰)追凶,和他搭档的则是刚从警校毕业的的新人任凯(李淳 饰)。调查中,展哥再次碰到到让他失去孩子、妻子成为植物人的车祸肇事女孩王桃(刘雅瑟 饰),痛苦往事令他无法自控,夜幕下我们看到他一路飞车狂堵女孩,又在后者以赎罪心态前来道歉和配合调查时,毫不留情地重拳暴打,并在调查中刻意将王桃置身于歹徒威胁下。

  影片由两条叙事线交叉而开始并进,强烈的影像风格和美学设计,足以让我们看到这部作品的野心。黑白画面隐去许多不必要的信息,强化了阴魅科幻的氛围,比彩色画面更有优势。高低远近的建筑,城市空间感十足,众多象征元素和人物设计,不同的人也许会看到不同的指意和表达。整部影片的警察作为正义的维护者,在片中的形象却模糊不清。其中演绎这个有地狱般经历的瘦弱女孩,可以想象演员需要付出的巨大能量和坚持,近年来在影视作品中已经有不俗表现的刘雅瑟,片中令人惊喜。

Video
Format                         : AVC
Format/Info                    : Advanced Video Codec
Format profile                 : High@L4
Format settings                : CABAC / 4 Ref Frames
Format settings, CABAC         : Yes
Format settings, Reference fra : 4 frames
Codec ID                       : V_MPEG4/ISO/AVC
Duration                       : 1 h 58 min
Bit rate mode                  : Variable
Bit rate                       : 6 953 kb/s
Maximum bit rate               : 12.7 Mb/s
Width                          : 1 920 pixels
Height                         : 1 080 pixels
Display aspect ratio           : 16:9
Frame rate mode                : Constant
Frame rate                     : 24.000 FPS
Color space                    : YUV
Chroma subsampling             : 4:2:0
Bit depth                      : 8 bits
Scan type                      : Progressive
Bits/(Pixel*Frame)             : 0.140
Stream size                    : 5.74 GiB (96%)
Color range                    : Limited
Color primaries                : BT.709
Transfer characteristics       : BT.709
Matrix coefficients            : BT.709

Audio
Format                         : E-AC-3
Format/Info                    : Enhanced AC-3
Commercial name                : Dolby Digital Plus
Codec ID                       : A_EAC3
Duration                       : 1 h 58 min
Bit rate mode                  : Constant
Bit rate                       : 256 kb/s
Channel(s)                     : 6 channels
Channel layout                 : L R C LFE Ls Rs
Sampling rate                  : 48.0 kHz
Frame rate                     : 31.250 FPS (1536 SPF)
Compression mode               : Lossy
Stream size                    : 217 MiB (4%)
Service kind                   : Complete Main
截图




【下载地址】

资源名称(您可以点击这些文件名进行下载)

全选

发 布 人:killman

网站名称:龙网

网  址:http://www.lwgod.com

Copyright@2008-2011 www.etdown.net. All Rights Reserved.   沪ICP备16043169号-1

光影资源联盟 疯狗下载 电影下载 最新电影下载

本站仅为网友提供交流的信息平台,所有资源的实际文件,都不在本站的服务器上,而是网友用自己的电脑自发共享的,更不保证文字描述和实际内容相符,发布的信息来自国内各资源站,本站只是由程序自动收集其发布的信息,如果您认为有关发布信息侵犯了您的版权,请及时举报,我们将尽快为您处理。追究版权及相关责任请直接与原发布网站的发布者联系,本站将近最大努力过滤政治和色情的内容,如发现一律封IP。取保问题请到举报贴。