网站导航|设为主页|加入收藏 首页|影视|动漫|音乐|软件|游戏|其他
首页>>>>这个杀手不太冷静下载

【中国2022票房爆笑】【这个杀手不太冷静】【WebDL-2160p.MKV】【国语】

中文名:【中国2022票房爆笑】【这个杀手不太冷静】【WebDL-2160p.MKV】【国语】

发布时间:2022-06-14 17:11

分类:

简介:

海报:





译  名 这个杀手不太冷静
片  名 Too Cool To Kill
年  代 2022
国  家 中国
类  别 喜剧
语  言 汉语普通话
字  幕 中英硬字幕
评  分 6.3/10 from 395,368 users
链  接 https://movie.douban.com/subject/35505100
文件大小 4.64 GB
片  长 109 Min
导  演 邢文雄 Wenxiong Xing
主  演 马丽 Li Ma
     魏翔 Xiang Wei
     陈明昊 Minghao Chen
     周大勇 Dayong Zhou
     黄才伦 Cailun Huang
     艾伦 Allen
     高海宝 Haibao Gao
     韩笑 Xiao Han
     孙贵权 Guiquan Sun
     许猛 Meng Xu
     全容杓 Rongbiao Quan

简介:

  魏成功(魏翔 饰)非常热爱表演,然而其貌不扬的他往往只能够在电影里觅得一个跑龙套的角色,可即便如此,魏成功还是无比认真的对待着自己的每一个甚至连名字都没有的角色,这股子劲头引起了当红女明星米兰(马丽 饰)的注意。

  米兰的弟弟米勒(黄才伦 饰)是一名电影导演,黑帮大佬哈维(陈明昊 饰)给他的电影投资了不菲的资金,哪知道亏得底裤都不剩,哈维一直爱慕着米兰,想要娶她为妻,可是米兰誓死不从。这一天,当哈维决定和姐弟两算总账之际,米兰告诉哈维自己认识他一直想要寻找的杀手卡尔(艾伦 饰)。哈维给了米兰一天的时间,让他把卡尔带到自己面前,实际上并不认识卡尔的米兰决定让魏成功来扮演这位冷酷的杀手。

Video
Format                         : HEVC
Format/Info                    : High Efficiency Video Coding
Format profile                 : Main 10 @ L5.1 @ Main
Codec ID                       : V_MPEGH/ISO/HEVC
Duration                       : 1 h 49 min
Bit rate                       : 5 645 kb/s
Width                          : 3 840 pixels
Height                         : 1 608 pixels
Display aspect ratio           : 2.40:1
Frame rate mode                : Constant
Frame rate                     : 60.000 FPS
Color space                    : YUV
Chroma subsampling             : 4:2:0
Bit depth                      : 10 bits
Bits/(Pixel*Frame)             : 0.015
Stream size                    : 4.30 GiB (93%)
Color range                    : Limited
Color primaries                : BT.709
Transfer characteristics       : BT.709
Matrix coefficients            : BT.709

Audio
Format                         : E-AC-3 JOC
Format/Info                    : Enhanced AC-3 with Joint Object Coding
Commercial name                : Dolby Digital Plus with Dolby Atmos
Codec ID                       : A_EAC3
Duration                       : 1 h 49 min
Bit rate mode                  : Constant
Bit rate                       : 448 kb/s
Channel(s)                     : 6 channels
Channel layout                 : L R C LFE Ls Rs
Sampling rate                  : 48.0 kHz
Frame rate                     : 31.250 FPS (1536 SPF)
Compression mode               : Lossy
Stream size                    : 350 MiB (7%)
Service kind                   : Complete Main
Complexity index               : 16
Number of dynamic objects      : 15
Bed channel count              : 1 channel
Bed channel configuration      : LFE
截图:




【下载地址】

资源名称(您可以点击这些文件名进行下载)

全选

发 布 人:killman

网站名称:龙网

网  址:http://www.lwgod.com

Copyright@2008-2011 www.etdown.net. All Rights Reserved.   沪ICP备16043169号-1

光影资源联盟 疯狗下载 电影下载 最新电影下载

本站仅为网友提供交流的信息平台,所有资源的实际文件,都不在本站的服务器上,而是网友用自己的电脑自发共享的,更不保证文字描述和实际内容相符,发布的信息来自国内各资源站,本站只是由程序自动收集其发布的信息,如果您认为有关发布信息侵犯了您的版权,请及时举报,我们将尽快为您处理。追究版权及相关责任请直接与原发布网站的发布者联系,本站将近最大努力过滤政治和色情的内容,如发现一律封IP。取保问题请到举报贴。