网站导航|设为主页|加入收藏 首页|影视|动漫|音乐|软件|游戏|其他
首页>>>>误杀2下载

【中国2021万众期待票房剧情犯罪】【误杀2】【WebDL-2160p.MKV】【国语】

中文名:【中国2021万众期待票房剧情犯罪】【误杀2】【WebDL-2160p.MKV】【国语】

发布时间:2022-05-13 02:37

分类:

简介:

海报





译  名 误杀2
片  名 Fireflies in the Sun
年  代 2021
国  家 中国
类  别 剧情/犯罪
语  言 汉语普通话
字  幕 中英硬字幕
评  分 5.7/10 from 313,409 users
链  接 https://movie.douban.com/subject/35068653
文件大小 9.47 GB
片  长 118 Min
导  演 戴墨 Mo Dai
主  演 肖央 Yang Xiao
     任达华 Simon Yam
     文咏珊 Janice Man
     陈雨锶 Yusi Chen
     宋洋 Yang Song
     李治廷 Aarif Lee
     张世 Shih Chang
     尹子维 Terence Yin
     姜皓文 Philip Keung
     陈昊 Hao Chen
     周楚濋 Chu-chu Zhou
     王昊泽 Haoze Wang

简介

  林日朗(肖央 饰)与妻子阿玲(文咏珊 饰)、儿子小虫(王昊泽 饰)一直过着清贫但幸福的生活,直到儿子小虫突发意外急需救治,几经周折,走投无路的林日朗为了救儿子决定放手一搏。他制定了一个惊天计划.....

  本片改编自电影《迫在眉梢》。

Video
Format                         : HEVC
Format/Info                    : High Efficiency Video Coding
Format profile                 : Main @ L5 @ Main
Codec ID                       : V_MPEGH/ISO/HEVC
Duration                       : 1 h 58 min
Bit rate                       : 11.0 Mb/s
Width                          : 3 840 pixels
Height                         : 1 608 pixels
Display aspect ratio           : 2.40:1
Frame rate mode                : Constant
Frame rate                     : 24.000 FPS
Color space                    : YUV
Chroma subsampling             : 4:2:0
Bit depth                      : 8 bits
Bits/(Pixel*Frame)             : 0.074
Stream size                    : 9.10 GiB (96%)

Audio
Format                         : E-AC-3 JOC
Format/Info                    : Enhanced AC-3 with Joint Object Coding
Commercial name                : Dolby Digital Plus with Dolby Atmos
Codec ID                       : A_EAC3
Duration                       : 1 h 58 min
Bit rate mode                  : Constant
Bit rate                       : 448 kb/s
Channel(s)                     : 6 channels
Channel layout                 : L R C LFE Ls Rs
Sampling rate                  : 48.0 kHz
Frame rate                     : 31.250 FPS (1536 SPF)
Compression mode               : Lossy
Stream size                    : 380 MiB (4%)
Service kind                   : Complete Main
Complexity index               : 16
Number of dynamic objects      : 15
Bed channel count              : 1 channel
Bed channel configuration      : LFE
截图




【下载地址】

资源名称(您可以点击这些文件名进行下载)

全选

发 布 人:killman

网站名称:龙网

网  址:http://www.lwgod.com

Copyright@2008-2011 www.etdown.net. All Rights Reserved.   沪ICP备16043169号-1

光影资源联盟 疯狗下载 电影下载 最新电影下载

本站仅为网友提供交流的信息平台,所有资源的实际文件,都不在本站的服务器上,而是网友用自己的电脑自发共享的,更不保证文字描述和实际内容相符,发布的信息来自国内各资源站,本站只是由程序自动收集其发布的信息,如果您认为有关发布信息侵犯了您的版权,请及时举报,我们将尽快为您处理。追究版权及相关责任请直接与原发布网站的发布者联系,本站将近最大努力过滤政治和色情的内容,如发现一律封IP。取保问题请到举报贴。