网站导航|设为主页|加入收藏 首页|影视|动漫|音乐|软件|游戏|其他
首页>>>>东北告别天团下载

【中国2022热门爆笑喜剧】【东北告别天团】【WebDL-2160p.MKV】【国语】

中文名:【中国2022热门爆笑喜剧】【东北告别天团】【WebDL-2160p.MKV】【国语】

发布时间:2022-05-06 01:01

分类:

简介:

海报





译  名 东北告别天团
片  名 Goodbye
年  代 2022
国  家 中国
类  别 喜剧/剧情
语  言 汉语普通话
字  幕 中文硬字幕
评  分 5.9/10 from 11,865 users
链  接 https://movie.douban.com/subject/35871767
文件大小 1.34 GB
片  长 95 Min
导  演 崔志佳 Zhijia Cui
主  演 崔志佳 Zhijia Cui
     宋晓峰 Xiaofeng Song
     张琪 Qi Zhang
     刁彪 Biao Diao
     李昆鹰 Kunying Li
     于洋 Yang Yu
     孙越 Yue Sun
     梁龙 Long Liang
     赵海燕 Haiyan Zhao
     张子栋 Zi-Dong Zhang
     韩彦博 Yanbo Han

简介

  范大明白(崔志佳 饰)在东北从事着白事行业,与众不同的是,范大明白愿意接纳刑满释放的人,为他们提供工作机会。这一天,一名叫做牛硬朗(宋晓峰 饰)的男人来到店里,抛出了豪华大单——三百万的葬礼,范大明白及团队惊讶不已……在办葬礼的过程中,范大明白和牛硬朗才发现,原来二人之间的渊源不止如此……

Video
Format                         : HEVC
Format/Info                    : High Efficiency Video Coding
Format profile                 : Main @ L5 @ Main
Codec ID                       : V_MPEGH/ISO/HEVC
Duration                       : 1 h 35 min
Bit rate                       : 1 897 kb/s
Width                          : 3 840 pixels
Height                         : 1 626 pixels
Display aspect ratio           : 2.35:1
Frame rate mode                : Constant
Frame rate                     : 24.000 FPS
Color space                    : YUV
Chroma subsampling             : 4:2:0
Bit depth                      : 8 bits
Bits/(Pixel*Frame)             : 0.013
Stream size                    : 1.26 GiB (94%)
Color range                    : Limited
Color primaries                : BT.709
Transfer characteristics       : BT.709
Matrix coefficients            : BT.709

Audio
Format                         : AAC LC
Format/Info                    : Advanced Audio Codec Low Complexity
Codec ID                       : A_AAC-2
Duration                       : 1 h 35 min
Bit rate                       : 125 kb/s
Channel(s)                     : 2 channels
Channel layout                 : L R
Sampling rate                  : 48.0 kHz
Frame rate                     : 46.875 FPS (1024 SPF)
Compression mode               : Lossy
Stream size                    : 85.2 MiB (6%)
截图




【下载地址】

资源名称(您可以点击这些文件名进行下载)

全选

发 布 人:killman

网站名称:龙网

网  址:http://www.lwgod.com

Copyright@2008-2011 www.etdown.net. All Rights Reserved.   沪ICP备16043169号-1

光影资源联盟 疯狗下载 电影下载 最新电影下载

本站仅为网友提供交流的信息平台,所有资源的实际文件,都不在本站的服务器上,而是网友用自己的电脑自发共享的,更不保证文字描述和实际内容相符,发布的信息来自国内各资源站,本站只是由程序自动收集其发布的信息,如果您认为有关发布信息侵犯了您的版权,请及时举报,我们将尽快为您处理。追究版权及相关责任请直接与原发布网站的发布者联系,本站将近最大努力过滤政治和色情的内容,如发现一律封IP。取保问题请到举报贴。