网站导航|设为主页|加入收藏 首页|影视|动漫|音乐|软件|游戏|其他
首页>>>>四海.年轻的故事下载

【韩寒导演2022众星喜剧爱情大片】【四海】【WebDL-1080p.MKV】【国语】

中文名:【韩寒导演2022众星喜剧爱情大片】【四海】【WebDL-1080p.MKV】【国语】

发布时间:2022-05-01 17:56

分类:

简介:

海报





译  名 四海/年轻的故事
片  名 Only Fools Rush In
年  代 2022
国  家 中国
类  别 喜剧/爱情/剧情
语  言 汉语普通话
字  幕 中英硬字幕
评  分 5.5/10 from 148,856 users
链  接 https://movie.douban.com/subject/35337517
文件大小 4.83 GB
片  长 124 Min
导  演 韩寒 Han Han
主  演 刘昊然 Haoran Liu
     刘浩存 Haocun Liu
     沈腾 Teng Shen
     尹正 Zheng Yin
     乔杉 Shan Qiao
     周奇 Qi Zhou
     张宥浩 Youhao Zhang
     冯绍峰 Shaofeng Feng
     黄晓明 Xiaoming Huang
     王彦霖 Yanlin Wang
     陈小春 Jordan Chan

简介

  在码头做摩托车特技表演顺便拉客的年轻人吴仁耀(刘昊然 饰),他多年不见的浪荡父亲吴仁腾(沈腾 饰);梦想大城市生活的餐馆服务员周欢颂和他浮夸真诚的哥哥周欢歌。一支从没有赢过一场比赛的“不败传说”车队频频出战,一群可笑又可爱的小人物命运交织。阿耀和欢颂都立志活成自己亲人的反面,想彼此取暖,彼此独立,却又总不在一个频道上。世事无常,他们不得不背井离乡,迎接一场未知旅途,阿耀的一身技能竟会用在一个自己都意想不到的场合,他的亲情友情和爱情最终又将会是如何……

Video
Format                         : AVC
Format/Info                    : Advanced Video Codec
Format profile                 : High @ L5
Format settings                : CABAC / 6 Ref Frames
Format settings, CABAC         : Yes
Format settings, Reference fra : 6 frames
Codec ID                       : V_MPEG4/ISO/AVC
Duration                       : 2 h 4 min
Bit rate                       : 5 242 kb/s
Width                          : 1 920 pixels
Height                         : 808 pixels
Display aspect ratio           : 2.40:1
Frame rate mode                : Constant
Frame rate                     : 25.000 FPS
Color space                    : YUV
Chroma subsampling             : 4:2:0
Bit depth                      : 8 bits
Scan type                      : Progressive
Bits/(Pixel*Frame)             : 0.135
Stream size                    : 4.56 GiB (94%)
Color range                    : Limited
Color primaries                : BT.709
Transfer characteristics       : BT.709
Matrix coefficients            : BT.709

Audio
Format                         : AAC LC
Format/Info                    : Advanced Audio Codec Low Complexity
Codec ID                       : A_AAC-2
Duration                       : 2 h 4 min
Bit rate                       : 320 kb/s
Channel(s)                     : 2 channels
Channel layout                 : L R
Sampling rate                  : 48.0 kHz
Frame rate                     : 46.875 FPS (1024 SPF)
Compression mode               : Lossy
Stream size                    : 285 MiB (6%)
截图




【下载地址】

资源名称(您可以点击这些文件名进行下载)

全选

发 布 人:killman

网站名称:龙网

网  址:http://www.lwgod.com

Copyright@2008-2011 www.etdown.net. All Rights Reserved.   沪ICP备16043169号-1

光影资源联盟 疯狗下载 电影下载 最新电影下载

本站仅为网友提供交流的信息平台,所有资源的实际文件,都不在本站的服务器上,而是网友用自己的电脑自发共享的,更不保证文字描述和实际内容相符,发布的信息来自国内各资源站,本站只是由程序自动收集其发布的信息,如果您认为有关发布信息侵犯了您的版权,请及时举报,我们将尽快为您处理。追究版权及相关责任请直接与原发布网站的发布者联系,本站将近最大努力过滤政治和色情的内容,如发现一律封IP。取保问题请到举报贴。