网站导航|设为主页|加入收藏 首页|影视|动漫|音乐|软件|游戏|其他
首页>影视索引>电影>动作片>天崩地裂(国英)下载

【美国皮尔斯·布鲁斯南经典动作大片】【天崩地裂(国英双语)】【BD-MKV/2.52G】【中英字幕】

中文名:【美国皮尔斯·布鲁斯南经典动作大片】【天崩地裂(国英双语)】【BD-MKV/2.52G】【中英字幕】

发布时间:2010-08-17 14:54

分类:动作片

简介:



【影片原名】Dante's Peak
【中文译名】天崩地裂/烈焰狂峰/山崩地裂/但丁峰
【出品公司】Argentina Video Home (AVH)
【出品年代】1997 年
【上映日期】1997年2月7日 美国
【影片级别】美国G-13  
【官方网站】N/A
【IMDB链接】http://www.imdb.com/title/tt0118928/
【IMDB评分】5.6/10 (23,143 votes)
【国  家】美国
【类  别】动作/冒险/剧情
【导  演】罗杰·唐纳森 Roger Donaldson
【主  演】皮尔斯·布鲁斯南 Pierce Brosnan .... Harry Dalton
      琳达·汉密尔顿 Linda Hamilton .... Mayor Rachel Wando
      Tzi Ma .... Stan, USGS Crew
      Heather Stephens .... Hot Springs Woman
      Carole Androsky .... Mary Kelly
      Bill Bolender .... Sheriff Turner
      Walker Brandt .... Marianne, Dalton's Late Girlfriend
      R.J. Burns .... Man at Helicopter
      麦克·巴特斯 Mike Butters .... Helicopter Pilot (uncredited)

【内容简介】

     研究火山的科学家哈里在工作中痛失爱妻,四年后他又受命去但丁峰进行地震测试。他测试的结果是火山存在异常活动,有喷发的迹象。但他发出警告的意见为上司所阻。但丁峰小镇的镇长瑞切尔是个单身母亲,她正准备组织一个庆祝活动,因为小镇刚刚获得一个全美最佳居住环境奖。在这种背景下,谁也不愿相信火山即将喷发的事实。但是哈里秉承科学家的良心还是坚持自己的意见。就在疏散工作正在进行的时候,火山爆发了。惊慌的人们纷纷逃离,但瑞切尔却要逆流而上去寻找她的女儿,哈里勇敢地挺身而出,驾车向山上开去……

【幕后花絮】

     全片分别在爱达荷州旧矿区的华勒斯小镇及洛杉矶片场和周围外景拍摄完成,由于这是一部着重于火山爆发的灾难片,为缔造影史上规模最大、最写实的火山爆发场面,除了请来曾经目赌80年代中期夺走两万名性命的哥伦比亚火山爆发的火山专家作为顾问,片中180组特效镜头全部是由以拍摄《阿波罗13》荣获奥斯卡奖提名的数位领域(DIGITAL DOMAIN)特效工作室处理。

     剧组特效部门为影片制作了130个CGI画面。

     片中火山是在洛杉矶的一个机库中搭建而成,整个模型占地100平方英尺,高35英,为钢木结构。

     为了制作足以以假乱真而又安全可靠的火山灰,剧组特效部门曾尝试使用锯末、石膏和面粉,但最终选择了报纸纸屑。

     片中所有火山口的画面都是在圣海伦火山拍摄的。



D:\Dante's.Peak.mkv
   General
      Complete name : D:\Dante's.Peak.mkv
      Format : Matroska
      File size : 2.52 GiB
      Duration : 1h 48mn
      Overall bit rate : 3 325 Kbps
      Encoded date : UTC 2010-08-15 04:07:59
      Writing application : mkvmerge v3.0.0 ('Hang up your Hang-Ups') 编译于 Dec 12 2009 15:20:35
      Writing library : libebml v0.7.9 + libmatroska v0.8.1
   Video #1
      ID : 1
      Format : AVC
      Format/Info : Advanced Video Codec
      Format profile : High@L4.1
      Format settings, CABAC : Yes
      Format settings, ReFrames : 4 frames
      Muxing mode : Container profile=Unknown@4.1
      Codec ID : V_MPEG4/ISO/AVC
      Duration : 1h 48mn
      Bit rate : 2 587 Kbps
      Nominal bit rate : 2 655 Kbps
      Width : 1 280 pixels
      Height : 720 pixels
      Display aspect ratio : 16:9
      Frame rate : 23.976 fps
      Resolution : 8 bits
      Colorimetry : 4:2:0
      Scan type : Progressive
      Bits/(Pixel*Frame) : 0.117
      Stream size : 1.96 GiB (78%)
      Writing library : x264 core 98 r1649 20cbe10
      Encoding settings : cabac=1 / ref=5 / deblock=1:-3:-2 / analyse=0x3:0x113 / me=umh / subme=8 / psy=1 / psy_rd=1.00:0.10 / mixed_ref=1 / me_range=32 / chroma_me=1 / trellis=2 / 8x8dct=1 / cqm=0 / deadzone=21,11 / fast_pskip=0 / chroma_qp_offset=-2 / threads=6 / sliced_threads=0 / nr=0 / decimate=0 / interlaced=0 / constrained_intra=0 / bframes=3 / b_pyramid=1 / b_adapt=2 / b_bias=0 / direct=1 / weightb=1 / weightp=2 / keyint=250 / keyint_min=25 / scenecut=40 / intra_refresh=0 / rc_lookahead=40 / rc=2pass / mbtree=1 / bitrate=2655 / ratetol=1.0 / qcomp=0.60 / qpmin=10 / qpmax=51 / qpstep=4 / cplxblur=20.0 / qblur=0.5 / ip_ratio=1.40 / aq=1:1.00
      Language : English
   Audio #2
      ID : 2
      Format : AC-3
      Format/Info : Audio Coding 3
      Codec ID : A_AC3
      Duration : 1h 48mn
      Bit rate mode : Constant
      Bit rate : 448 Kbps
      Channel(s) : 6 channels
      Channel positions : Front: L C R, Surround: L R, LFE
      Sampling rate : 48.0 KHz
      Stream size : 348 MiB (13%)
   Audio #3
      ID : 3
      Format : AC-3
      Format/Info : Audio Coding 3
      Format profile : Dolby Digital
      Codec ID : A_AC3
      Duration : 1h 48mn
      Bit rate mode : Constant
      Bit rate : 224 Kbps
      Channel(s) : 2 channels
      Channel positions : L R
      Sampling rate : 48.0 KHz
      Stream size : 174 MiB (7%)
   Text #3
      ID : 3
      Format : SSA
      Codec ID : S_TEXT/SSA
      Codec ID/Info : Sub Station Alpha
      Title : 上中下英
   Text #4
      ID : 4
      Format : SSA
      Codec ID : S_TEXT/SSA
      Codec ID/Info : Sub Station Alpha
      Title : 上英下中
   Text #5
      ID : 5
      Format : UTF-8
      Codec ID : S_TEXT/UTF8
      Codec ID/Info : UTF-8 Plain Text
      Title : 中文
   Text #6
      ID : 6
      Format : UTF-8
      Codec ID : S_TEXT/UTF8
      Codec ID/Info : UTF-8 Plain Text
      Title : 英文



【下载地址】

资源名称(您可以点击这些文件名进行下载.)          大小    速度

全选 复制选中的链接 到光影在线播放(本功能只对应IE,FireFox请逐个点击下载)

发 布 人:scjy

网站名称:圣城家园

网  址:http://bbs.cnscg.com/

Copyright@2008-2011 etdown.net. All Rights Reserved.   沪ICP备13037828号-1

光影资源联盟 疯狗下载 电影下载 最新电影下载

本站仅为网友提供交流的信息平台,所有资源的实际文件,都不在本站的服务器上,而是网友用自己的电脑自发共享的,更不保证文字描述和实际内容相符,发布的信息来自国内各资源站,本站只是由程序自动收集其发布的信息,如果您认为有关发布信息侵犯了您的版权,请及时举报,我们将尽快为您处理。追究版权及相关责任请直接与原发布网站的发布者联系,本站将近最大努力过滤政治和色情的内容,如发现一律封IP。取保问题请到举报贴。